사용기 및 구매후기


 

성야무인님께서 장기 프로젝트의 일환으로 진행중인 태블릿 리뷰 두번째 기기로

중국 Ployer 사의 7인치 태블릿 Momo9 입니다.

2세대 가강판(加强版)이라고 명명된 모델인데 대체 무엇을 강화 시켰길래 "가강판"이라고

명명했을까요?

 

 

 

 

오늘은 세 번째로 기기의 동영상을 중심으로 및 기타 성능을 살펴 보겠습니다.

 

 

 

(1) Down Sizing

중국 저가 태블릿 대부분에서 다양한 이유로 화면에서 다운사이징의 현상(등고선/깍두기 현상)을

발견할 수 있습니다. 

 

momo9의 바탕화면입니다.

이전의 PD10 보다는 다소 낫지만 역시나 등고선 현상이 발견됩니다.

2012_06_06-22_29_16.jpg

 

 

(비교 사진) PD10 바탕화면에서의 등고선 현상 

사본 -2012-04-17-13-10-42.jpg

 

 

 

 

 

 

(2) 샘플 동영상 테스트

이제 정지된 사진이 아닌 동영상을 직접 플레이시켜 등고선/깍두기 현상이 나타나는지 확인합니다.

 

플레이어는 MX Player를 사용하고 H/W 디코딩 조건입니다.

테스트 동영상은 소녀시대의 3분 18초 분량의 "Kissing You" 공연 영상으로 다양한 방식의 코덱과 포맷으로 이루어져 있습니다.

 

먼저 ...

첫번째 테스트 영상입니다.

Format                           : AVI
Format/Info                      : Audio Video Interleave
File size                        : 41.9 MiB
Duration                         : 3mn 18s
Overall bit rate                 : 1 773 Kbps
Writing application              : PotEncoder

Video
Format                           : AVC
Format/Info                      : Advanced Video Codec
Format profile                   : High@L3.0
Format settings, CABAC           : No
Format settings, ReFrames        : 1 frame
Codec ID                         : H264
Duration                         : 3mn 18s
Bit rate                         : 1 665 Kbps
Width                            : 800 pixels
Height                           : 480 pixels
Display aspect ratio             : 1.667
Frame rate                       : 24.000 fps
Resolution                       : 24 bits
Colorimetry                      : 4:2:0
Scan type                        : Progressive
Bits/(Pixel*Frame)               : 0.181
Stream size                      : 39.4 MiB (94%)

Audio
Format                           : MPEG Audio
Format version                   : Version 1
Format profile                   : Layer 3
Codec ID                         : 55
Codec ID/Hint                    : MP3
Duration                         : 3mn 18s
Bit rate mode                    : Constant
Bit rate                         : 96.0 Kbps
Channel(s)                       : 2 channels
Sampling rate                    : 44.1 KHz
Resolution                       : 16 bits
Stream size                      : 2.27 MiB (5%)
Alignment                        : Aligned on interleaves
Interleave, duration             : 26 ms (0.63 video frame)
Writing library                  : LAME3.98

 중앙 부분을 보시면 깍두기 현상이 현저히 나타납니다.

3.jpg

 

 

 

 

 

두번째 테스트 영상입니다.

Format                           : AVI
Format/Info                      : Audio Video Interleave
File size                        : 37.3 MiB
Duration                         : 3mn 18s
Overall bit rate                 : 1 578 Kbps
Writing application              : PotEncoder

Video
Format                           : MPEG-4 Visual
Format profile                   : Simple@L1
Format settings, BVOP            : No
Format settings, QPel            : No
Format settings, GMC             : No warppoints
Format settings, Matrix          : Default
Codec ID                         : DX50
Codec ID/Hint                    : DivX 5
Duration                         : 3mn 18s
Bit rate                         : 1 470 Kbps
Width                            : 800 pixels
Height                           : 480 pixels
Display aspect ratio             : 1.667
Frame rate                       : 24.000 fps
Resolution                       : 24 bits
Colorimetry                      : 4:2:0
Scan type                        : Progressive
Bits/(Pixel*Frame)               : 0.160
Stream size                      : 34.7 MiB (93%)
Writing library                  : Lavc52.108.0

Audio
Format                           : MPEG Audio
Format version                   : Version 1
Format profile                   : Layer 3
Codec ID                         : 55
Codec ID/Hint                    : MP3
Duration                         : 3mn 18s
Bit rate mode                    : Constant
Bit rate                         : 96.0 Kbps
Channel(s)                       : 2 channels
Sampling rate                    : 44.1 KHz
Resolution                       : 16 bits
Stream size                      : 2.27 MiB (6%)
Alignment                        : Aligned on interleaves
Interleave, duration             : 26 ms (0.63 video frame)
Writing library                  : LAME3.98

역시 중앙 부분을 보시면 깍두기 현상이 현저히 나타납니다.

4.jpg

 

 

 

 

 

세번째 테스트 영상입니다.

Format                           : AVI
Format/Info                      : Audio Video Interleave
File size                        : 20.4 MiB
Duration                         : 3mn 18s
Overall bit rate                 : 861 Kbps
Writing application              : PotEncoder

Video
Format                           : VC-1
Codec ID                         : WMV3
Codec ID/Info                    : Windows Media Video 9
Codec ID/Hint                    : WMV3
Duration                         : 3mn 18s
Bit rate                         : 753 Kbps
Width                            : 800 pixels
Height                           : 480 pixels
Display aspect ratio             : 1.667
Frame rate                       : 24.000 fps
Resolution                       : 24 bits
Bits/(Pixel*Frame)               : 0.082
Stream size                      : 17.8 MiB (87%)

Audio
Format                           : MPEG Audio
Format version                   : Version 1
Format profile                   : Layer 3
Codec ID                         : 55
Codec ID/Hint                    : MP3
Duration                         : 3mn 18s
Bit rate mode                    : Constant
Bit rate                         : 96.0 Kbps
Channel(s)                       : 2 channels
Sampling rate                    : 44.1 KHz
Resolution                       : 16 bits
Stream size                      : 2.27 MiB (11%)
Alignment                        : Aligned on interleaves
Interleave, duration             : 26 ms (0.63 video frame)
Writing library                  : LAME3.98

역시 중앙 부분을 보시면 깍두기 현상이 현저히 나타납니다.

5.jpg

 

 

 


 

네번째 테스트 영상입니다.

Format                           : AVI
Format/Info                      : Audio Video Interleave
File size                        : 20.4 MiB
Duration                         : 3mn 18s
Overall bit rate                 : 862 Kbps
Writing application              : PotEncoder

Video
Format                           : VC-1
Codec ID                         : WVC1
Codec ID/Hint                    : Microsoft
Duration                         : 3mn 18s
Bit rate                         : 754 Kbps
Width                            : 800 pixels
Height                           : 480 pixels
Display aspect ratio             : 1.667
Frame rate                       : 24.000 fps
Resolution                       : 24 bits
Bits/(Pixel*Frame)               : 0.082
Stream size                      : 17.8 MiB (87%)

Audio
Format                           : MPEG Audio
Format version                   : Version 1
Format profile                   : Layer 3
Codec ID                         : 55
Codec ID/Hint                    : MP3
Duration                         : 3mn 18s
Bit rate mode                    : Constant
Bit rate                         : 96.0 Kbps
Channel(s)                       : 2 channels
Sampling rate                    : 44.1 KHz
Resolution                       : 16 bits
Stream size                      : 2.27 MiB (11%)
Alignment                        : Aligned on interleaves
Interleave, duration             : 26 ms (0.63 video frame)
Writing library                  : LAME3.98

역시 중앙 부분을 보시면 깍두기 현상이 현저히 나타납니다.

6.jpg

 

 

 

 

 

 

다섯번째 테스트 영상입니다.

Format                           : AVI
Format/Info                      : Audio Video Interleave
File size                        : 42.6 MiB
Duration                         : 3mn 18s
Overall bit rate                 : 1 801 Kbps
Writing application              : PotEncoder

Video
Format                           : S-Mpeg 4 v3
Codec ID                         : MP43
Codec ID/Info                    : Microsoft MPEG-4 V3
Duration                         : 3mn 18s
Bit rate                         : 1 694 Kbps
Width                            : 800 pixels
Height                           : 480 pixels
Display aspect ratio             : 1.667
Frame rate                       : 24.000 fps
Resolution                       : 24 bits
Bits/(Pixel*Frame)               : 0.184
Stream size                      : 40.0 MiB (94%)

Audio
Format                           : MPEG Audio
Format version                   : Version 1
Format profile                   : Layer 3
Codec ID                         : 55
Codec ID/Hint                    : MP3
Duration                         : 3mn 18s
Bit rate mode                    : Constant
Bit rate                         : 96.0 Kbps
Channel(s)                       : 2 channels
Sampling rate                    : 44.1 KHz
Resolution                       : 16 bits
Stream size                      : 2.27 MiB (5%)
Alignment                        : Aligned on interleaves
Interleave, duration             : 26 ms (0.63 video frame)
Writing library                  : LAME3.98
중앙 부분을 보시면 깍두기 현상이 다소 나타납니다.

7.jpg

 

 

 

 

 

 

여섯번째 테스트 영상입니다.

Format                           : AVI
Format/Info                      : Audio Video Interleave
File size                        : 37.3 MiB
Duration                         : 3mn 18s
Overall bit rate                 : 1 578 Kbps
Writing application              : PotEncoder

Video
Format                           : MPEG-4 Visual
Format profile                   : Simple@L1
Format settings, BVOP            : No
Format settings, QPel            : No
Format settings, GMC             : No warppoints
Format settings, Matrix          : Default
Codec ID                         : XVID
Codec ID/Hint                    : XviD
Duration                         : 3mn 18s
Bit rate                         : 1 470 Kbps
Width                            : 800 pixels
Height                           : 480 pixels
Display aspect ratio             : 1.667
Frame rate                       : 24.000 fps
Resolution                       : 24 bits
Colorimetry                      : 4:2:0
Scan type                        : Progressive
Bits/(Pixel*Frame)               : 0.160
Stream size                      : 34.7 MiB (93%)
Writing library                  : Lavc52.108.0

Audio
Format                           : MPEG Audio
Format version                   : Version 1
Format profile                   : Layer 3
Codec ID                         : 55
Codec ID/Hint                    : MP3
Duration                         : 3mn 18s
Bit rate mode                    : Constant
Bit rate                         : 96.0 Kbps
Channel(s)                       : 2 channels
Sampling rate                    : 44.1 KHz
Resolution                       : 16 bits
Stream size                      : 2.27 MiB (6%)
Alignment                        : Aligned on interleaves
Interleave, duration             : 26 ms (0.63 video frame)
Writing library                  : LAME3.98 

중앙 부분을 보시면 깍두기 현상이 다소 나타납니다.

8.jpg

 

 

 

 

 

 

일곱번째 테스트 영상입니다.

Format                           : AVI
Format/Info                      : Audio Video Interleave
File size                        : 43.0 MiB
Duration                         : 3mn 18s
Overall bit rate                 : 1 816 Kbps
Writing application              : PotEncoder

Video
Format                           : WMV1
Codec ID                         : WMV1
Codec ID/Info                    : Windows Media Video 7
Duration                         : 3mn 18s
Bit rate                         : 1 709 Kbps
Width                            : 800 pixels
Height                           : 480 pixels
Display aspect ratio             : 1.667
Frame rate                       : 24.000 fps
Resolution                       : 24 bits
Bits/(Pixel*Frame)               : 0.185
Stream size                      : 40.4 MiB (94%)

Audio
Format                           : MPEG Audio
Format version                   : Version 1
Format profile                   : Layer 3
Codec ID                         : 55
Codec ID/Hint                    : MP3
Duration                         : 3mn 18s
Bit rate mode                    : Constant
Bit rate                         : 96.0 Kbps
Channel(s)                       : 2 channels
Sampling rate                    : 44.1 KHz
Resolution                       : 16 bits
Stream size                      : 2.27 MiB (5%)
Alignment                        : Aligned on interleaves
Interleave, duration             : 26 ms (0.63 video frame)
Writing library                  : LAME3.98 

중앙 부분을 보시면 깍두기 현상이 다소 나타납니다.

9.jpg

 

 

 

 

 

 

여덟번째 테스트 영상입니다.

Format                           : AVI
Format/Info                      : Audio Video Interleave
File size                        : 45.2 MiB
Duration                         : 3mn 18s
Overall bit rate                 : 1 912 Kbps
Writing application              : PotEncoder

Video
Format                           : WMV2
Codec ID                         : WMV2
Codec ID/Info                    : Windows Media Video 8
Duration                         : 3mn 18s
Bit rate                         : 1 804 Kbps
Width                            : 800 pixels
Height                           : 480 pixels
Display aspect ratio             : 1.667
Frame rate                       : 24.000 fps
Resolution                       : 24 bits
Bits/(Pixel*Frame)               : 0.196
Stream size                      : 42.7 MiB (94%)

Audio
Format                           : MPEG Audio
Format version                   : Version 1
Format profile                   : Layer 3
Codec ID                         : 55
Codec ID/Hint                    : MP3
Duration                         : 3mn 18s
Bit rate mode                    : Constant
Bit rate                         : 96.0 Kbps
Channel(s)                       : 2 channels
Sampling rate                    : 44.1 KHz
Resolution                       : 16 bits
Stream size                      : 2.27 MiB (5%)
Alignment                        : Aligned on interleaves
Interleave, duration             : 26 ms (0.63 video frame)
Writing library                  : LAME3.98 

중앙 부분을 보시면 깍두기 현상이 다소 나타납니다.

10.jpg

 

 

 

 

 

아홉번째 테스트 영상입니다.

Format                           : AVI
Format/Info                      : Audio Video Interleave
File size                        : 37.3 MiB
Duration                         : 3mn 18s
Overall bit rate                 : 1 578 Kbps
Writing application              : PotEncoder

Video
Format                           : MPEG-4 Visual
Format profile                   : Simple@L1
Format settings, BVOP            : No
Format settings, QPel            : No
Format settings, GMC             : No warppoints
Format settings, Matrix          : Default
Codec ID                         : DIVX
Codec ID/Info                    : Project Mayo
Codec ID/Hint                    : DivX 4
Duration                         : 3mn 18s
Bit rate                         : 1 470 Kbps
Width                            : 800 pixels
Height                           : 480 pixels
Display aspect ratio             : 1.667
Frame rate                       : 24.000 fps
Resolution                       : 24 bits
Colorimetry                      : 4:2:0
Scan type                        : Progressive
Bits/(Pixel*Frame)               : 0.160
Stream size                      : 34.7 MiB (93%)
Writing library                  : Lavc52.108.0

Audio
Format                           : MPEG Audio
Format version                   : Version 1
Format profile                   : Layer 3
Codec ID                         : 55
Codec ID/Hint                    : MP3
Duration                         : 3mn 18s
Bit rate mode                    : Constant
Bit rate                         : 96.0 Kbps
Channel(s)                       : 2 channels
Sampling rate                    : 44.1 KHz
Resolution                       : 16 bits
Stream size                      : 2.27 MiB (6%)
Alignment                        : Aligned on interleaves
Interleave, duration             : 26 ms (0.63 video frame)
Writing library                  : LAME3.98
중앙 부분을 보시면 깍두기 현상이 약하게 나타납니다.

11.jpg

 




 

열번째 테스트 영상입니다.

Format                           : AVI
Format/Info                      : Audio Video Interleave
File size                        : 43.4 MiB
Duration                         : 3mn 18s
Overall bit rate                 : 1 833 Kbps
Writing application              : PotEncoder

Video
Format                           : MPEG-4 Visual
Format profile                   : Simple@L3
Format settings, BVOP            : No
Format settings, QPel            : No
Format settings, GMC             : No warppoints
Format settings, Matrix          : Default
Codec ID                         : XVID
Codec ID/Hint                    : XviD
Duration                         : 3mn 18s
Bit rate                         : 1 726 Kbps
Width                            : 800 pixels
Height                           : 480 pixels
Display aspect ratio             : 1.667
Frame rate                       : 24.000 fps
Resolution                       : 24 bits
Colorimetry                      : 4:2:0
Scan type                        : Progressive
Bits/(Pixel*Frame)               : 0.187
Stream size                      : 40.8 MiB (94%)
Writing library                  : XviD 1.2.1 (UTC 2008-12-04)

Audio
Format                           : MPEG Audio
Format version                   : Version 1
Format profile                   : Layer 3
Codec ID                         : 55
Codec ID/Hint                    : MP3
Duration                         : 3mn 18s
Bit rate mode                    : Constant
Bit rate                         : 96.0 Kbps
Channel(s)                       : 2 channels
Sampling rate                    : 44.1 KHz
Resolution                       : 16 bits
Stream size                      : 2.27 MiB (5%)
Alignment                        : Aligned on interleaves
Interleave, duration             : 26 ms (0.63 video frame)
Writing library                  : LAME3.98

중앙 부분을 보시면 깍두기 현상이 아주 약하게 나타납니다.

12.jpg


 

 

 

 

 

열한번째 테스트 영상입니다.

Format                           : AVI
Format/Info                      : Audio Video Interleave
File size                        : 40.1 MiB
Duration                         : 3mn 18s
Overall bit rate                 : 1 697 Kbps
Writing application              : PotEncoder

Video
Format                           : MPEG-4 Visual
Format profile                   : Simple@L3
Format settings, BVOP            : No
Format settings, QPel            : No
Format settings, GMC             : No warppoints
Format settings, Matrix          : Default
Codec ID                         : XVID
Codec ID/Hint                    : XviD
Duration                         : 3mn 18s
Bit rate                         : 1 559 Kbps
Width                            : 720 pixels
Height                           : 480 pixels
Display aspect ratio             : 1.500
Frame rate                       : 24.000 fps
Standard                         : NTSC
Resolution                       : 24 bits
Colorimetry                      : 4:2:0
Scan type                        : Progressive
Bits/(Pixel*Frame)               : 0.188
Stream size                      : 36.8 MiB (92%)
Writing library                  : XviD 1.2.1 (UTC 2008-12-04)

Audio
Format                           : AAC
Format/Info                      : Advanced Audio Codec
Format version                   : Version 4
Format profile                   : LC
Format settings, SBR             : No
Codec ID                         : FF
Duration                         : 3mn 18s
Bit rate                         : 96.0 Kbps
Channel(s)                       : 2 channels
Channel positions                : L R
Sampling rate                    : 44.1 KHz
Resolution                       : 16 bits
Stream size                      : 2.96 MiB (7%)
Alignment                        : Split accross interleaves
Interleave, duration             : 23 ms (0.56 video frame) 

중앙 부분을 보시면 깍두기 현상이 아주 약하게 나타납니다.

13.jpg




 


 

열두번째 테스트 영상입니다.

Format                           : AVI
Format/Info                      : Audio Video Interleave
File size                        : 39.4 MiB
Duration                         : 3mn 18s
Overall bit rate                 : 1 667 Kbps
Writing application              : PotEncoder

Video
Format                           : MPEG-4 Visual
Format profile                   : Simple@L3
Format settings, BVOP            : No
Format settings, QPel            : No
Format settings, GMC             : No warppoints
Format settings, Matrix          : Default
Codec ID                         : XVID
Codec ID/Hint                    : XviD
Duration                         : 3mn 18s
Bit rate                         : 1 559 Kbps
Width                            : 720 pixels
Height                           : 480 pixels
Display aspect ratio             : 1.500
Frame rate                       : 24.000 fps
Standard                         : NTSC
Resolution                       : 24 bits
Colorimetry                      : 4:2:0
Scan type                        : Progressive
Bits/(Pixel*Frame)               : 0.188
Stream size                      : 36.8 MiB (93%)
Writing library                  : XviD 1.2.1 (UTC 2008-12-04)

Audio
Format                           : MPEG Audio
Format version                   : Version 1
Format profile                   : Layer 3
Codec ID                         : 55
Codec ID/Hint                    : MP3
Duration                         : 3mn 18s
Bit rate mode                    : Constant
Bit rate                         : 96.0 Kbps
Channel(s)                       : 2 channels
Sampling rate                    : 44.1 KHz
Resolution                       : 16 bits
Stream size                      : 2.27 MiB (6%)
Alignment                        : Aligned on interleaves
Interleave, duration             : 26 ms (0.63 video frame)
Writing library                  : LAME3.98 

중앙 부분을 보시면 깍두기 현상이 아주 약하게 나타납니다.

14.jpg



 

 

 

 

열세번째 테스트 영상입니다.

Format                           : AVI
Format/Info                      : Audio Video Interleave
File size                        : 39.4 MiB
Duration                         : 3mn 18s
Overall bit rate                 : 1 667 Kbps
Writing application              : PotEncoder

Video
Format                           : MPEG-4 Visual
Format profile                   : Simple@L3
Format settings, BVOP            : No
Format settings, QPel            : No
Format settings, GMC             : No warppoints
Format settings, Matrix          : Default
Codec ID                         : XVID
Codec ID/Hint                    : XviD
Duration                         : 3mn 18s
Bit rate                         : 1 559 Kbps
Width                            : 720 pixels
Height                           : 480 pixels
Display aspect ratio             : 1.500
Frame rate                       : 24.000 fps
Standard                         : NTSC
Resolution                       : 24 bits
Colorimetry                      : 4:2:0
Scan type                        : Progressive
Bits/(Pixel*Frame)               : 0.188
Stream size                      : 36.8 MiB (93%)
Writing library                  : XviD 1.2.1 (UTC 2008-12-04)

Audio
Format                           : MPEG Audio
Format version                   : Version 1
Format profile                   : Layer 3
Codec ID                         : 55
Codec ID/Hint                    : MP3
Duration                         : 3mn 18s
Bit rate mode                    : Constant
Bit rate                         : 96.0 Kbps
Channel(s)                       : 2 channels
Sampling rate                    : 44.1 KHz
Resolution                       : 16 bits
Stream size                      : 2.27 MiB (6%)
Alignment                        : Aligned on interleaves
Interleave, duration             : 26 ms (0.63 video frame)
Writing library                  : LAME3.98

 중앙 부분을 보시면 깍두기 현상이 아주 약하게 나타납니다.

15.jpg


 

 

 

 

 

열네번째 테스트 영상입니다.

Format                           : AVI
Format/Info                      : Audio Video Interleave
File size                        : 38.2 MiB
Duration                         : 3mn 18s
Overall bit rate                 : 1 615 Kbps
Writing application              : PotEncoder

Video
Format                           : MPEG-4 Visual
Format profile                   : Simple@L3
Format settings, BVOP            : No
Format settings, QPel            : No
Format settings, GMC             : No warppoints
Format settings, Matrix          : Default
Codec ID                         : XVID
Codec ID/Hint                    : XviD
Duration                         : 3mn 18s
Bit rate                         : 1 559 Kbps
Width                            : 720 pixels
Height                           : 480 pixels
Display aspect ratio             : 1.500
Frame rate                       : 24.000 fps
Standard                         : NTSC
Resolution                       : 24 bits
Colorimetry                      : 4:2:0
Scan type                        : Progressive
Bits/(Pixel*Frame)               : 0.188
Stream size                      : 36.8 MiB (96%)
Writing library                  : XviD 1.2.1 (UTC 2008-12-04)

Audio
Format                           : AAC
Format/Info                      : Advanced Audio Codec
Format version                   : Version 4
Format profile                   : LC
Format settings, SBR             : No
Codec ID                         : FF
Duration                         : 3mn 18s
Bit rate                         : 48.0 Kbps
Channel(s)                       : 2 channels
Channel positions                : L R
Sampling rate                    : 22.05 KHz
Resolution                       : 16 bits
Stream size                      : 1.14 MiB (3%)
Alignment                        : Split accross interleaves
Interleave, duration             : 46 ms (1.11 video frame)
중앙 부분을 보시면 깍두기 현상이 아주 미세하게 나타납니다.

17.jpg


 

 

 

 

 

열다섯번째 테스트 영상입니다.

Format                           : Matroska
File size                        : 255 MiB
Duration                         : 3mn 18s
Overall bit rate                 : 10.8 Mbps
Encoded date                     : UTC 2012-01-03 11:20:20
Writing application              : mkvmerge v5.2.0 ('I can't explain') built on Dec 18 2011 18:12:03
Writing library                  : libebml v1.2.3 + libmatroska v1.3.0

Video
ID                               : 1
Format                           : AVC
Format/Info                      : Advanced Video Codec
Format profile                   : High@L4.1
Format settings, CABAC           : Yes
Format settings, ReFrames        : 4 frames
Muxing mode                      : Container profile=Unknown@4.1
Codec ID                         : V_MPEG4/ISO/AVC
Duration                         : 3mn 18s
Bit rate                         : 9 701 Kbps
Nominal bit rate                 : 10.1 Mbps
Width                            : 1 920 pixels
Height                           : 1 080 pixels
Display aspect ratio             : 16/9
Frame rate                       : 23.976 fps
Resolution                       : 24 bits
Colorimetry                      : 4:2:0
Scan type                        : Progressive
Bits/(Pixel*Frame)               : 0.195
Writing library                  : x264 core 120 r2120 0c7dab9
Encoding settings                : cabac=1 / ref=4 / deblock=1:0:0 / analyse=0x3:0x113 / me=umh / subme=8 / psy=1 / psy_rd=1.00:0.00 / mixed_ref=1 / me_range=16 / chroma_me=1 / trellis=1 / 8x8dct=1 / cqm=0 / deadzone=21,11 / fast_pskip=1 / chroma_qp_offset=-2 / threads=3 / sliced_threads=0 / nr=0 / decimate=1 / interlaced=0 / bluray_compat=0 / constrained_intra=0 / bframes=3 / b_pyramid=2 / b_adapt=2 / b_bias=0 / direct=3 / weightb=1 / open_gop=0 / weightp=2 / keyint=250 / keyint_min=23 / scenecut=40 / intra_refresh=0 / rc_lookahead=50 / rc=2pass / mbtree=1 / bitrate=10135 / ratetol=1.0 / qcomp=0.60 / qpmin=0 / qpmax=69 / qpstep=4 / cplxblur=20.0 / qblur=0.5 / ip_ratio=1.40 / aq=1:1.00

Audio
ID                               : 2
Format                           : AC-3
Format/Info                      : Audio Coding 3
Codec ID                         : A_AC3
Duration                         : 3mn 18s
Bit rate mode                    : Constant
Bit rate                         : 640 Kbps
Channel(s)                       : 6 channels
Channel positions                : Front: L C R, Surround: L R, LFE
Sampling rate                    : 48.0 KHz

중앙 부분을 보시면 깍두기 현상이 전혀 나타나지 않습니다.

18.jpg

 

 



 

상기 동영상은 리뷰어에게 제공된 테스트용입니다.

결국 파일이나 코덱의 형식보다는 원본 동영상을 다양한 형식으로 인코딩할때의 손실율 등에 따라

깍두기 현상등이 나타나기도 하고 아니기도 합니다.

또한 다수의 720p의 영화와 동영상은 큰 무리 없이 재생이 가능하므로 결국 기기의 다운사이징은

그리 심하지 않다는 결론을 이끌어 낼 수 있습니다.

 

 

 

 

 

(3) 동영상 스트림

사진은 Everyon Tv 앱입니다.

다수의 케이블tv 채널을 스트림 방식으로 수신이 가능하며 끊김이나 딜레이 없이 정상적인 시청이 가능합니다.

19.jpg


20.jpg 

 

pooq 입니다.

MBC, MBC Drama, MBC Everyone, MBC Music, SBS 모두 정상적인 시청이 가능합니다.

21.jpg

 

 22.jpg

 

 


You Tube 역시 정상적으로 동작됩니다

23.jpg

.



 

 

 

(3) 게임

momo9의 2D 게임은 큰 문제 없이 대부분 잘 돌아갑니다.

Angry Bird, Plants vs Zombies, Where's my water, Cut the Rope 등은 모두 문제 없이 구동됩니다.

3D 게임의 경우 Samurai 2Vengeance, Hero of Sparta 등은 구동이 잘 되지만 GTA III는 설치가 아예 되지 않습니다.

 

그런데 ....심각한 문제가 발견 됩니다.

 

Splinter Cell 입니다.

게임의 배경이 전부 화이트로 표시되어 정상적인 플레이가 불가능 합니다.

24.jpg

 

 

아스팔트5 입니다.

초기 설정화면에서 조금 잘려져 나오지만 그리 큰 문제는 아닙니다만 더 큰 문제는.....

중력센서 이상인지 화면이 60도 정도 틀어져 출력되어 정상적인 플레이가 곤란합니다.

성야무인님께서 댓글에서 알려주신 팁대로 하니 정상 동작 되었습니다.

즉, 기기의 설정-디스플레이-  Accelerometer coordinate system-Special coordinate system 으로 설정.

25.jpg

 

 

 

momo9은 800x480의 저가 LCD 패널을 채용한 기기이며 이에 맞추어 그리 고급스럽지 않은 화질입니다.

지난 리뷰에서도 잠깐 언급했지만 PD10 보다는 훨씬 만족스러우나 그래도 약간 푸른빛이 감도는

물빠진 색감을 보여줍니다만 전체적으로는 자연색에 가깝습니다.

어차피 저가 태블릿의 한계를 인정한다면 동영상 플레이어로서는 그리 불만족스럽지는 않을 것 같습니다.

 

 

이상으로 4월27일자 펌웨어 조건에서 3번에 걸쳐 리뷰를 하였습니다. 

그러나 펌웨어 날짜별로 다양한 특색이 있다고 알려진바 , 다음 리뷰는 현재 까지의 최신 펌웨어인 6월7일자

펌웨어로 업글 후 세번의 리뷰에서 빠진 주요 앱의 동작성능과 함께 간단한 비교 리뷰를 작성해 보겠습니다.

유난히 심했던 스압을 참아주셔서 감사 드립니다. 

 

 

to be continued .....

번호 제목 작성자 작성일 조회
925 필립스 기상등 HF3520 Wake-Up Light [3] file 스노우캣 01.11 3084
924 pipo u1 pro 간단사용기 [13] 퐁퐁 11.20 3086
923 SmartQ Ten3 구입 및 개봉기 [6] 호수가 03.30 3087
922 4년된 중고 노트북 과연 쓸만할까.(레노보 요가 2 프로)그냥 사보고 끄적여 봅니다. [7] 바보준용군 02.12 3089
921 싼게 비지떡;;;;하드 가방? 알류미늄 케이스 [10] file 스파르타 02.04 3090
920 횡설수설 아이패드 미니 박스오픈기 [6] yohan666 11.02 3090
919 Kingstone 리더기와 8G 2개를 샀습니다.. 그런데 반전이... [6] 수원사랑 03.07 3093
918 onda Vi60 Ultimate 분해기 [17] file 에스비 12.19 3093
917 [해외리뷰번역] JXD S7300B 리뷰 #4 - 배터리 및 결론 [2] file 낙랑이 03.14 3094
916 androra mini7 리뷰 #1 [언박싱, 외형, 그리고 마감품질] [9] file 에스비 12.27 3096
915 야마토 미니볼반 주물바이스 [3] file 타바스코 11.09 3102
914 Pantech Element P4100 간단 사용기 [3] 어설픈마왕 12.30 3103
913 iFive x2 수령-개봉-1시간 사용 [4] 화우 06.18 3105
912 낙랑이의 인내심 수양 리뷰 7탄 - Teclast P76e #1 외관 및 성능 [16] file 낙랑이 11.29 3106
911 中意888 의 간략한 배터리 러닝타임 테스트 [6] file 다카오카 11.25 3109
910 윈탭 ( Acer Iconia W3 - 810 ) 간단 사용기 [12] file 푸른솔 02.01 3109
909 [PiPO] U1 #3.Performance file Lock3rz 11.11 3110
908 후딱 써버리는 간단 매개조? 노트북 리뷰 [3] file 스파르타 03.16 3116
907 다솜 진주비누 간략한 후기 [5] Visual 11.27 3130
906 태블릿은 아니지만. 마우스패드 사용기입니다 [1] file 60억낚시꾼 07.30 3137

오늘:
529
어제:
2,361
전체:
12,919,546